The Beyond 2018 720p WEB-DL DD 5.1 x264 ESub[Moviezworldz]

  • Category Movies
  • Type HD
  • Language English
  • Total size 880.7 MB
  • Uploaded By moviezworldz
  • Downloads 373
  • Last checked 1 week ago
  • Date uploaded 2 weeks ago
  • Seeders 8
  • Leechers 8

The Beyond

HorrorScience Fiction

Set in 2019, The Beyond chronicles the groundbreaking mission which sent astronauts - modified with advanced robotics, through a newly discovered wormhole known as the Void. When the mission returns unexpectedly, the space agency races to discover what the astronauts encountered on their first of its kind interstellar space journey.

Infohash : 66082CADD8CDCAA53DC7E9E59BB1422EDDD27A62




General
Format : Matroska
Format version : Version 4 / Version 2
File size : 881 MiB
Duration : 1 h 31 min
Overall bit rate : 1 341 kb/s

Video
ID : 1
Format : AVC
Format/Info : Advanced Video Codec
Format profile : [email protected]
Format settings : CABAC / 4 Ref Frames
Format settings, CABAC : Yes
Format settings, ReFrames : 4 frames
Codec ID : V_MPEG4/ISO/AVC
Duration : 1 h 31 min
Bit rate : 1 100 kb/s
Width : 1 280 pixels
Height : 538 pixels
Display aspect ratio : 2.40:1
Frame rate mode : Constant
Frame rate : 23.976 (24000/1001) FPS
Color space : YUV
Chroma subsampling : 4:2:0
Bit depth : 8 bits
Scan type : Progressive
Bits/(Pixel*Frame) : 0.067
Stream size : 711 MiB (81%)
Writing library : x264 core 148 r2708 86b7198
Default : Yes
Forced : No

Audio
ID : 2
Format : AC-3
Format/Info : Audio Coding 3
Codec ID : A_AC3
Duration : 1 h 31 min
Bit rate mode : Constant
Bit rate : 256 kb/s
Channel(s) : 6 channels
Channel positions : Front: L C R, Side: L R, LFE
Sampling rate : 48.0 kHz
Frame rate : 31.250 FPS (1536 SPF)
Bit depth : 16 bits
Compression mode : Lossy
Stream size : 168 MiB (19%)
Language : English
Service kind : Complete Main
Default : Yes
Forced : No

Text
ID : 3
Format : UTF-8
Codec ID : S_TEXT/UTF8
Codec ID/Info : UTF-8 Plain Text
Duration : 1 h 28 min
Bit rate : 84 b/s
Count of elements : 1539
Stream size : 54.8 KiB (0%)
Language : English
Default : Yes
Forced : No










Files:

The Beyond 2018 720p WEB-DL DD 5.1 x264 ESub
  • The Beyond 2018 720p WEB-DL DD 5.1 x264 ESub.mkv (880.7 MB)

There are currently no comments. Feel free to leave one :)

Code:

  • udp://tracker.coppersurfer.tk:6969/announce
  • udp://tracker.cyberia.is:6969/announce
  • udp://inferno.demonoid.pw:3391/announce
  • udp://open.stealth.si:80/announce
  • udp://tracker.pirateparty.gr:6969/announce
  • udp://peerfect.org:6969/announce
  • udp://p4p.arenabg.com:1337/announce
  • udp://p4p.arenabg.ch:1337/announce
  • udp://tracker.leechers-paradise.org:6969/announce
  • udp://ipv4.tracker.harry.lu:80/announce
  • udp://shadowshq.yi.org:6969/announce
  • udp://tracker.vanitycore.co:6969/announce
  • udp://tracker.opentrackr.org:1337/announce
  • udp://explodie.org:6969/announce
  • udp://tracker.zer0day.to:1337/announce
  • udp://tracker.leechers-paradise.org:6969/announce
  • udp://coppersurfer.tk:6969/announce