Valerian and the City of a Thousand Planets (2017) (2160p BluRay ...

  • Category Movies
  • Type HEVC/x265
  • Language English
  • Total size 6.1 GB
  • Uploaded By UTRCorp
  • Downloads 955
  • Last checked 6 days ago
  • Date uploaded 1 week ago
  • Seeders 130
  • Leechers 35

Infohash : 3A933C302BCD240160FC97F8AD118C837DC89324








Media Information

Media Information

Code:

General
Format : Matroska
Format version : Version 4 / Version 2
File size : 6.14 GiB
Duration : 2 h 17 min
Overall bit rate : 6 401 kb/s
Movie name : Valerian and the City of a Thousand Planets 2017 (2160p x265 10bit S93 Joy)[UTR]
Encoded date : UTC 2018-01-12 00:18:00
Writing application : mkvmerge v19.0.0 ('Brave Captain') 64-bit
Writing library : libebml v1.3.5 + libmatroska v1.4.8
Cover : Yes
Attachments : cover.jpg
Writing frontend : StaxRip v1.7.0.4

Video
ID : 1
Format : HEVC
Format/Info : High Efficiency Video Coding
Format profile : Main [email protected]@Main
Codec ID : V_MPEGH/ISO/HEVC
Duration : 2 h 17 min
Bit rate : 6 003 kb/s
Width : 3 840 pixels
Height : 1 600 pixels
Display aspect ratio : 2.40:1
Frame rate mode : Constant
Frame rate : 23.976 (24000/1001) FPS
Color space : YUV
Chroma subsampling : 4:2:0
Bit depth : 10 bits
Bits/(Pixel*Frame) : 0.041
Stream size : 5.76 GiB (94%)
Writing library : x265 2.5+27-0e168bdeb48b:[Windows][MSVC 1911][64 bit] 10bit
Encoding settings : cpuid=1173503 / frame-threads=3 / numa-pools=8 / wpp / no-pmode / no-pme / no-psnr / ssim / log-level=2 / input-csp=1 / input-res=3840x1600 / interlace=0 / total-frames=197674 / level-idc=0 / high-tier=1 / uhd-bd=0 / ref=3 / no-allow-non-conformance / repeat-headers / annexb / no-aud / no-hrd / info / hash=0 / no-temporal-layers / open-gop / min-keyint=23 / keyint=250 / bframes=4 / b-adapt=2 / b-pyramid / bframe-bias=0 / rc-lookahead=20 / lookahead-slices=8 / scenecut=40 / no-intra-refresh / ctu=64 / min-cu-size=8 / no-rect / no-amp / max-tu-size=32 / tu-inter-depth=1 / tu-intra-depth=1 / limit-tu=0 / rdoq-level=1 / dynamic-rd=0.00 / no-ssim-rd / signhide / no-tskip / nr-intra=0 / nr-inter=0 / no-constrained-intra / strong-intra-smoothing / max-merge=2 / limit-refs=3 / no-limit-modes / me=1 / subme=2 / merange=57 / temporal-mvp / weightp / weightb / no-analyze-src-pics / deblock=2:2 / sao / sao-non-deblock / rd=3 / no-early-skip / rskip / no-fast-intra / no-tskip-fast / no-cu-lossless / b-intra / no-splitrd-skip / rdpenalty=0 / psy-rd=2.00 / psy-rdoq=0.00 / no-rd-refine / analysis-reuse-mode=0 / no-lossless / cbqpoffs=0 / crqpoffs=0 / rc=abr / bitrate=6000 / qcomp=0.60 / qpstep=4 / stats-write=0 / stats-read=2 / cplxblur=20.0 / qblur=0.5 / ipratio=1.40 / pbratio=1.30 / aq-mode=3 / aq-strength=1.00 / cutree / zone-count=0 / no-strict-cbr / qg-size=32 / no-rc-grain / qpmax=69 / qpmin=0 / no-const-vbv / sar=0 / overscan=0 / videoformat=5 / range=0 / colorprim=9 / transfer=16 / colormatrix=9 / chromaloc=0 / display-window=0 / master-display=G(13250,34500)B(7500,3000)R(34000,16000)WP(15635,16450)L(40000000,50) / max-cll=0,0 / min-luma=0 / max-luma=1023 / log2-max-poc-lsb=8 / vui-timing-info / vui-hrd-info / slices=1 / opt-qp-pps / opt-ref-list-length-pps / multi-pass-opt-rps / scenecut-bias=0.05 / no-opt-cu-delta-qp / no-aq-motion / hdr / no-hdr-opt / no-dhdr10-opt / analysis-reuse-level=5 / scale-factor=0 / refine-intra=0 / refine-inter=0 / refine-mv=0 / limit-sao / ctu-info=0
Default : Yes
Forced : No
Color range : Limited
Color primaries : BT.2020
Transfer characteristics : SMPTE ST 2084
Matrix coefficients : BT.2020 non-constant
Mastering display color primaries : R: x=0.680000 y=0.320000, G: x=0.265000 y=0.690000, B: x=0.150000 y=0.060000, White point: x=0.312700 y=0.329000
Mastering display luminance : min: 0.0050 cd/m2, max: 4000.0000 cd/m2

Audio
ID : 2
Format : AAC
Format/Info : Advanced Audio Codec
Format profile : LC
Codec ID : A_AAC
Duration : 2 h 17 min
Bit rate : 384 kb/s
Channel(s) : 8 channels
Channel positions : Front: L C R, Side: 4, LFE
Sampling rate : 48.0 kHz
Frame rate : 46.875 FPS (1024 spf)
Compression mode : Lossy
Delay relative to video : 20 ms
Stream size : 383 MiB (6%)
Language : English
Default : No
Forced : No

Subtitle #1
ID : 3
Format : PGS
Muxing mode : zlib
Codec ID : S_HDMV/PGS
Codec ID/Info : Picture based subtitle format used on BDs/HD-DVDs
Duration : 3 min 43 s
Bit rate : 2 105 b/s
Count of elements : 10
Stream size : 57.4 KiB (0%)
Title : English Alien Parts
Language : English
Default : Yes
Forced : Yes

Subtitle #2
ID : 4
Format : VobSub
Muxing mode : zlib
Codec ID : S_VOBSUB
Codec ID/Info : Picture based subtitle format used on DVDs
Duration : 2 h 12 min
Bit rate : 7 283 b/s
Count of elements : 1494
Stream size : 6.93 MiB (0%)
Language : German
Default : No
Forced : No

Subtitle #3
ID : 5
Format : UTF-8
Codec ID : S_TEXT/UTF8
Codec ID/Info : UTF-8 Plain Text
Duration : 2 h 10 min
Bit rate : 80 b/s
Count of elements : 1750
Stream size : 77.5 KiB (0%)
Language : Arabic
Default : No
Forced : No

Subtitle #4
ID : 6
Format : UTF-8
Codec ID : S_TEXT/UTF8
Codec ID/Info : UTF-8 Plain Text
Duration : 2 h 9 min
Bit rate : 42 b/s
Count of elements : 1872
Stream size : 40.4 KiB (0%)
Language : Chinese
Default : No
Forced : No

Subtitle #5
ID : 7
Format : UTF-8
Codec ID : S_TEXT/UTF8
Codec ID/Info : UTF-8 Plain Text
Duration : 2 h 10 min
Bit rate : 44 b/s
Count of elements : 1038
Stream size : 42.4 KiB (0%)
Language : Danish
Default : No
Forced : No

Subtitle #6
ID : 8
Format : UTF-8
Codec ID : S_TEXT/UTF8
Codec ID/Info : UTF-8 Plain Text
Duration : 2 h 6 min
Bit rate : 52 b/s
Count of elements : 1147
Stream size : 48.4 KiB (0%)
Language : Dutch
Default : No
Forced : No

Subtitle #7
ID : 9
Format : UTF-8
Codec ID : S_TEXT/UTF8
Codec ID/Info : UTF-8 Plain Text
Duration : 2 h 17 min
Bit rate : 84 b/s
Count of elements : 1622
Stream size : 84.7 KiB (0%)
Language : Persian
Default : No
Forced : No

Subtitle #8
ID : 10
Format : UTF-8
Codec ID : S_TEXT/UTF8
Codec ID/Info : UTF-8 Plain Text
Duration : 2 h 7 min
Bit rate : 42 b/s
Count of elements : 1226
Stream size : 40.1 KiB (0%)
Language : Finnish
Default : No
Forced : No

Subtitle #9
ID : 11
Format : UTF-8
Codec ID : S_TEXT/UTF8
Codec ID/Info : UTF-8 Plain Text
Duration : 2 h 6 min
Bit rate : 50 b/s
Count of elements : 1132
Stream size : 46.4 KiB (0%)
Language : French
Default : No
Forced : No

Subtitle #10
ID : 12
Format : UTF-8
Codec ID : S_TEXT/UTF8
Codec ID/Info : UTF-8 Plain Text
Duration : 2 h 5 min
Bit rate : 72 b/s
Count of elements : 1404
Stream size : 67.0 KiB (0%)
Language : Hebrew
Default : No
Forced : No

Subtitle #11
ID : 13
Format : UTF-8
Codec ID : S_TEXT/UTF8
Codec ID/Info : UTF-8 Plain Text
Duration : 2 h 6 min
Bit rate : 44 b/s
Count of elements : 1039
Stream size : 41.2 KiB (0%)
Language : Norwegian
Default : No
Forced : No

Subtitle #12
ID : 14
Format : UTF-8
Codec ID : S_TEXT/UTF8
Codec ID/Info : UTF-8 Plain Text
Duration : 2 h 6 min
Bit rate : 54 b/s
Count of elements : 1475
Stream size : 50.7 KiB (0%)
Language : Portuguese
Default : No
Forced : No

Subtitle #13
ID : 15
Format : UTF-8
Codec ID : S_TEXT/UTF8
Codec ID/Info : UTF-8 Plain Text
Duration : 2 h 9 min
Bit rate : 60 b/s
Count of elements : 1763
Stream size : 57.0 KiB (0%)
Language : Romanian
Default : No
Forced : No

Subtitle #14
ID : 16
Format : UTF-8
Codec ID : S_TEXT/UTF8
Codec ID/Info : UTF-8 Plain Text
Duration : 2 h 13 min
Bit rate : 103 b/s
Count of elements : 1895
Stream size : 101 KiB (0%)
Language : Russian
Default : No
Forced : No

Subtitle #15
ID : 17
Format : UTF-8
Codec ID : S_TEXT/UTF8
Codec ID/Info : UTF-8 Plain Text
Duration : 2 h 5 min
Bit rate : 55 b/s
Count of elements : 1502
Stream size : 50.9 KiB (0%)
Language : Spanish
Default : No
Forced : No

Subtitle #16
ID : 18
Format : UTF-8
Codec ID : S_TEXT/UTF8
Codec ID/Info : UTF-8 Plain Text
Duration : 2 h 6 min
Bit rate : 50 b/s
Count of elements : 1190
Stream size : 46.4 KiB (0%)
Language : Swedish
Default : No
Forced : No

Subtitle #17
ID : 19
Format : UTF-8
Codec ID : S_TEXT/UTF8
Codec ID/Info : UTF-8 Plain Text
Duration : 2 h 13 min
Bit rate : 71 b/s
Count of elements : 1641
Stream size : 70.1 KiB (0%)
Language : Vietnamese
Default : No
Forced : No

Menu
00:00:00.000 : en:Chapter 1
00:11:12.213 : en:Chapter 2
00:20:10.501 : en:Chapter 3
00:30:38.336 : en:Chapter 4
00:41:21.562 : en:Chapter 5
00:51:37.344 : en:Chapter 6
01:01:54.920 : en:Chapter 7
01:10:50.997 : en:Chapter 8
01:20:27.489 : en:Chapter 9
01:34:23.741 : en:Chapter 10
01:44:35.102 : en:Chapter 11
01:57:01.723 : en:Chapter 12
02:06:18.196 : en:Chapter 13



Source Information

Code:

Release:
Valerian.and.the.City.of.a.Thousand.Planets.2017.2160p.UHD.BluRay.REMUX.HDR.HEVC.Atmos-EPSiLON.mkv (51.28 GBs)


Files:

  • Valerian and the City of a Thousand Planets 2017 (2160p x265 10bit S93 Joy).mkv (6.1 GB)

Comments

Code:

  • udp://tracker.opentrackr.org:1337/announce
  • udp://p4p.arenabg.ch:1337/announce
  • udp://tracker.piratepublic.com:1337/announce
  • udp://tracker.leechers-paradise.org:6969/announce
  • udp://tracker.coppersurfer.tk:6969/announce
  • udp://tracker.zer0day.to:1337/announce
  • udp://p4p.arenabg.com:1337/announce
  • udp://p4p.arenabg.ch:1337/announce
  • udp://tracker.internetwarriors.net:1337/announce
  • udp://eddie4.nl:6969/announce
  • http://retracker.krs-ix.ru/announce
  • udp://tracker.torrent.eu.org:451/announce
  • udp://tracker.opentrackr.org:1337/announce
  • http://tracker.trackerfix.com:80/announce
  • udp://9.rarbg.me:2710/announce
  • udp://9.rarbg.to:2710/announce